Dante_Labelle_-_Addiction-(ADD_1)-WEB-2018-ZzZz
Szaleństwa panny Ewy
ctorres.info - The Largest Bittorent System Login   |    Register
Latest Articles
Most searched
Hot torrents
Movie Torrents
Hot torrents
TV Torrents
View Torrent Info: The.Big.Bang.Theory.S11E21.HDTV.x264-SVA[eztv]
View Torrent Info: Arrow.S06E19.HDTV.x264-SVA[eztv]
View Torrent Info: Supergirl.S03E14.HDTV.x264-SVA[eztv]
View Torrent Info: Krypton.S01E05.HDTV.x264-SVA[eztv]
View Torrent Info: Lucifer.S03E20.HDTV.x264-KILLERS[eztv]
View Torrent Info: Marvels.Agents.of.S.H.I.E.L.D.S05E18.HDTV.x264-KILLERS[eztv]
View Torrent Info: The.Flash.2014.S04E18.HDTV.x264-KILLERS[eztv]
View Torrent Info: The.Originals.S05E01.HDTV.x264-SVA[eztv]
View Torrent Info: Brooklyn.Nine-Nine.S05E16.WEB.x264-TBS[eztv]
View Torrent Info: Blindspot.S03E18.PROPER.HDTV.x264-KILLERS[eztv]
ctorres.info > Categories > Movies torrents > h.264/x264 torrents


Browse Movies torrents

Not Cinderellas Type 2018 HDRip x264 AAC [MW] torrent



Download torrent: Download Not Cinderellas Type 2018 HDRip x264 AAC [MW] torrent Magnet link Bookmark Torrent: Not Cinderellas Type 2018 HDRip x264 AAC [MW] Not Cinderellas Type 2018 HDRip x264 AAC [MW] torrent | if not working, try instead: Magnet Link
Info hash: C04B94824BC34CF928E3B074FE9432758ACA31CD
Category: Categories > Movies torrents > h.264/x264 torrents
Trackers:
17    View all torrent trackers >
Health:
 seeds: 0 ,  leechers: 0 |  Update >
Torrent language:  
Total Size: 759.10 MB
Torrent status: Added by trusted uploader Added by trusted uploader Trusted Uploader Site Friend Superman Sun
Uploader: Trusted Uploader Site Friend Superman Sun
Torrent added: 2018-04-17 11:49:16
 

Download Not Cinderellas Type 2018 HDRip x264 AAC [MW] torrent if not working, try downloading torrent using Download Not Cinderellas Type 2018 HDRip x264 AAC [MW] via Magnet Link




Torrent Description






General
Format : Matroska
Format version : Version 4 / Version 2
File size : 759 MiB
Duration : 1 h 37 min
Overall bit rate : 1 094 kb/s

Video
ID : 1
Format : AVC
Format/Info : Advanced Video Codec
Format profile : [email protected]
Format settings : CABAC / 4 Ref Frames
Format settings, CABAC : Yes
Format settings, RefFrames : 4 frames
Codec ID : V_MPEG4/ISO/AVC
Duration : 1 h 37 min
Bit rate : 1 000 kb/s
Width : 720 pixels
Height : 400 pixels
Display aspect ratio : 16:9
Frame rate mode : Constant
Frame rate : 23.976 (24000/1001) FPS
Color space : YUV
Chroma subsampling : 4:2:0
Bit depth : 8 bits
Scan type : Progressive
Bits/(Pixel*Frame) : 0.145
Stream size : 692 MiB (91%)
Writing library : x264 core 155 r2893 b00bcaf
Default : Yes
Forced : No

Audio
ID : 2
Format : AAC
Format/Info : Advanced Audio Codec
Format profile : HE-AAC / LC
Format settings : Explicit
Codec ID : A_AAC-2
Duration : 1 h 37 min
Bit rate : 96.0 kb/s
Channel(s) : 2 channels
Channel positions : Front: L R
Sampling rate : 48.0 kHz / 24.0 kHz
Frame rate : 23.438 FPS (1024 SPF)
Compression mode : Lossy
Stream size : 65.7 MiB (9%)
Default : Yes
Forced : No













#moviezworldz -> To avoid fakes, ALWAYS check that the torrent was added on ctorres.info by moviezworldz

http://ctorres.info/



Download Not Cinderellas Type 2018 HDRip x264 AAC [MW] torrent


Comments (please add your comment)
No comments



Home - Browse Torrents - Upload Torrent - Stat - Forum - FAQ - Login
ctorres.info is in compliance with copyrights
2006-2018 ctorres.info